<?xml version="1.0" standalone="no"?>
<!DOCTYPE svg PUBLIC "-//W3C//DTD SVG 1.1//EN" "http://www.w3.org/Graphics/SVG/1.1/DTD/svg11.dtd" >
<svg xmlns="http://www.w3.org/2000/svg">
<metadata></metadata>
<defs>
<font id="sofia_pro_lightregular" horiz-adv-x="612" >
<font-face units-per-em="1000" ascent="750" descent="-250" />
<missing-glyph horiz-adv-x="266" />
<glyph unicode="&#xfb01;" horiz-adv-x="597" d="M29 407v60h91v54q0 199 163 199h50v-63h-50q-32 0 -52.5 -12t-29.5 -33.5t-11.5 -42t-2.5 -48.5v-54h331v-467h-66v407h-265v-407h-67v407h-91zM435 641q0 21 15 34.5t36 13.5t36 -13.5t15 -34.5t-15 -34.5t-36 -13.5t-36 13.5t-15 34.5z" />
<glyph unicode="&#xfb02;" horiz-adv-x="584" d="M29 407v60h91v54q0 199 163 199h220v-720h-66v657h-154q-32 0 -52.5 -12t-29.5 -33.5t-11.5 -42t-2.5 -48.5v-54h115v-60h-115v-407h-67v407h-91z" />
<glyph unicode="&#xfb03;" horiz-adv-x="945" d="M29 407v60h91v54q0 199 163 199h50v-63h-50q-32 0 -52.5 -12t-29.5 -33.5t-11.5 -42t-2.5 -48.5v-54h281v54q0 199 163 199h50v-63h-50q-32 0 -52.5 -12t-29.5 -33.5t-11.5 -42t-2.5 -48.5v-54h331v-467h-66v407h-265v-407h-67v407h-281v-407h-67v407h-91zM783 641 q0 21 15 34.5t36 13.5t36 -13.5t15 -34.5t-15 -34.5t-36 -13.5t-36 13.5t-15 34.5z" />
<glyph unicode="&#xfb04;" horiz-adv-x="932" d="M29 407v60h91v54q0 199 163 199h50v-63h-50q-32 0 -52.5 -12t-29.5 -33.5t-11.5 -42t-2.5 -48.5v-54h281v54q0 199 163 199h220v-720h-66v657h-154q-32 0 -52.5 -12t-29.5 -33.5t-11.5 -42t-2.5 -48.5v-54h115v-60h-115v-407h-67v407h-281v-407h-67v407h-91z" />
<glyph horiz-adv-x="1000" />
<glyph horiz-adv-x="1000" />
<glyph unicode="&#xd;" horiz-adv-x="1000" />
<glyph unicode=" "  horiz-adv-x="266" />
<glyph unicode="&#x09;" horiz-adv-x="266" />
<glyph unicode="&#xa0;" horiz-adv-x="266" />
<glyph unicode="!" horiz-adv-x="260" d="M75 42q0 22 16 37t39 15t39 -15t16 -37t-16 -37t-39 -15t-39 15t-16 37zM97 689h66l-6 -504h-54z" />
<glyph unicode="&#x22;" horiz-adv-x="326" d="M79 418v271h53v-271h-53zM194 418v271h53v-271h-53z" />
<glyph unicode="#" horiz-adv-x="656" d="M37 175l17 62h110l58 214h-109l16 62h110l49 176h62l-49 -176h144l49 176h62l-49 -176h112l-17 -62h-112l-59 -214h112l-17 -62h-112l-48 -175h-62l48 175h-144l-48 -175h-61l48 175h-110zM225 237h144l59 214h-144z" />
<glyph unicode="$" horiz-adv-x="554" d="M50 198h66q0 -55 44 -98.5t113 -43.5q72 0 116 33.5t53 79.5q9 59 -28.5 95t-102.5 51l-93 21q-162 36 -162 173q0 77 59 129.5t140 57.5v95h50v-96q81 -10 132 -62.5t51 -132.5h-66q0 59 -42.5 95t-107.5 36q-59 0 -104.5 -34.5t-45.5 -87.5q0 -84 110 -109l94 -21 q92 -21 143.5 -75.5t37.5 -146.5q-12 -62 -64.5 -109.5t-137.5 -55.5v-114h-50v113q-91 6 -148 68t-57 139z" />
<glyph unicode="%" horiz-adv-x="654" d="M39 539q0 56 38.5 95t94.5 39t95 -39.5t39 -94.5q0 -56 -39 -94.5t-95 -38.5t-94.5 38.5t-38.5 94.5zM96 539q0 -32 22 -54t54 -22t54.5 22t22.5 54q0 31 -22.5 54t-54.5 23t-54 -22.5t-22 -54.5zM138 0l329 673h47l-329 -673h-47zM349 123q0 56 38.5 95t94.5 39 t95 -39.5t39 -94.5q0 -56 -39 -94.5t-95 -38.5t-94.5 38.5t-38.5 94.5zM406 123q0 -32 22 -54t54 -22t54.5 22t22.5 54q0 31 -22.5 54t-54.5 23t-54 -22.5t-22 -54.5z" />
<glyph unicode="&#x26;" horiz-adv-x="664" d="M57 210q0 59 31.5 110t84.5 80q-60 49 -60 129q0 70 50.5 119t125.5 49q51 0 92.5 -23.5t64.5 -62.5l-56 -35q-32 55 -101 55q-48 0 -79 -29t-31 -73t29.5 -74t75.5 -30h156v88h65v-89h92v-59h-92v-155q0 -75 22.5 -116t87.5 -41v-63q-57 0 -97.5 25.5t-54.5 67.5 q-23 -42 -74 -67.5t-108 -25.5q-98 0 -161 63.5t-63 156.5zM123 210q0 -66 44 -110t114 -44q68 0 112.5 42t46.5 105v162h-158q-67 0 -113 -46t-46 -109z" />
<glyph unicode="'" horiz-adv-x="211" d="M79 418v271h53v-271h-53z" />
<glyph unicode="(" horiz-adv-x="361" d="M54 232q0 219 72.5 342t193.5 123v-66q-91 0 -145.5 -105.5t-54.5 -293.5q0 -187 54.5 -293t145.5 -106v-66q-121 0 -193.5 123.5t-72.5 341.5z" />
<glyph unicode=")" horiz-adv-x="361" d="M41 -167q91 0 145.5 106t54.5 293q0 188 -54.5 293.5t-145.5 105.5v66q121 0 193.5 -123t72.5 -342q0 -218 -72.5 -341.5t-193.5 -123.5v66z" />
<glyph unicode="*" horiz-adv-x="487" d="M57 536q4 14 11.5 35.5t10.5 31.5l136 -52q-1 21 -4 71.5t-4 74.5h73l-9 -146l138 52l21 -67l-141 -38q14 -18 47 -59t45 -57q-26 -19 -56 -40l-79 121q-11 -17 -41 -59.5t-43 -62.5l-56 42l92 113z" />
<glyph unicode="+" horiz-adv-x="522" d="M57 232v63h172v172h63v-172h173v-63h-173v-173h-63v173h-172z" />
<glyph unicode="," horiz-adv-x="244" d="M23 -118q66 93 63 211h77q-6 -80 -33 -138.5t-61 -86.5z" />
<glyph unicode="-" horiz-adv-x="485" d="M72 202v63h341v-63h-341z" />
<glyph unicode="." horiz-adv-x="254" d="M72 42q0 22 16 37t39 15t39 -15t16 -37t-16 -37t-39 -15t-39 15t-16 37z" />
<glyph unicode="/" horiz-adv-x="473" d="M32 0l337 689h73l-337 -689h-73z" />
<glyph unicode="0" horiz-adv-x="610" d="M68 331q0 76 11 134t36.5 107t73 75t116.5 26q68 0 116 -26t73.5 -75t36 -107t10.5 -134t-10.5 -133.5t-36 -106.5t-73.5 -75t-116 -26t-116 26t-73.5 75t-36.5 107t-11 133zM134 331q0 -128 38 -201.5t133 -73.5q50 0 84.5 21t52.5 60.5t25.5 86t7.5 107.5 q0 129 -37.5 202.5t-132.5 73.5t-133 -73.5t-38 -202.5z" />
<glyph unicode="1" horiz-adv-x="322" d="M42 540v60l179 65v-665h-66v579z" />
<glyph unicode="2" horiz-adv-x="525" d="M54 516q12 72 68 114.5t133 42.5q86 0 145 -53.5t59 -136.5q0 -88 -72 -170l-209 -247h282v-66h-399v23l278 337q54 64 54 123q0 56 -39.5 90t-98.5 34q-54 0 -93.5 -29t-46.5 -78z" />
<glyph unicode="3" horiz-adv-x="535" d="M47 114l60 27q15 -34 50.5 -57t81.5 -27q64 -4 113.5 33t53.5 94q2 56 -42.5 98t-106.5 42h-64v63h64q50 -1 85 30.5t37 77.5q2 47 -27.5 77.5t-87.5 34.5q-41 2 -77 -14.5t-53 -45.5l-53 33q27 46 77.5 72t109.5 22q91 -7 138.5 -61t39.5 -128q-3 -40 -28.5 -75 t-65.5 -52q56 -13 91 -69t30 -115q-7 -82 -77 -135.5t-161 -47.5q-64 5 -114.5 38.5t-73.5 84.5z" />
<glyph unicode="4" horiz-adv-x="586" d="M29 142l365 523h49v-462h100v-61h-100v-142h-66v142h-348zM150 203h227v330z" />
<glyph unicode="5" horiz-adv-x="561" d="M48 130l57 41q19 -48 66.5 -80t99.5 -32q78 0 122.5 42.5t44.5 107.5q0 66 -46 104t-104 38q-49 0 -85.5 -11t-97.5 -41l-26 35l58 331h326v-67h-269l-40 -220q82 41 134 41q92 0 155.5 -56.5t63.5 -153.5q0 -100 -64 -159.5t-172 -59.5q-69 0 -131 39t-92 101z" />
<glyph unicode="6" horiz-adv-x="556" d="M73 214q-7 151 11 260q15 90 75.5 146t148.5 53q60 -3 103.5 -27t69.5 -85l-58 -25q-32 66 -118 71q-90 3 -129.5 -74.5t-36.5 -195.5q16 42 62.5 63t95.5 19q89 -4 147 -69.5t54 -153.5q-4 -90 -66.5 -150t-151.5 -56q-87 4 -143 63.5t-64 160.5zM140 211 q-1 -64 40.5 -108t102.5 -46t103.5 38.5t45.5 103.5q2 63 -37 107t-100 46q-62 2 -107.5 -38.5t-47.5 -102.5z" />
<glyph unicode="7" horiz-adv-x="518" d="M56 0l331 599h-328v66h441l-366 -665h-78z" />
<glyph unicode="8" horiz-adv-x="565" d="M58 202q0 58 30 107t82 77q-58 47 -58 124q0 68 49 115.5t121 47.5q73 0 123 -47.5t50 -115.5q0 -76 -61 -124q52 -28 82.5 -77t30.5 -107q0 -89 -65 -150.5t-160 -61.5t-159.5 61.5t-64.5 150.5zM124 202q0 -61 45.5 -103.5t112.5 -42.5t113 42.5t46 103.5t-46 105 t-113 44h-7q-64 -2 -107.5 -46t-43.5 -103zM178 510q0 -40 28.5 -69t70.5 -30h9q44 1 73.5 30t29.5 69q0 41 -30.5 69t-76.5 28q-44 0 -74 -28t-30 -69z" />
<glyph unicode="9" horiz-adv-x="558" d="M60 466q4 90 66.5 150t151.5 56q87 -4 143 -63.5t64 -160.5q7 -151 -11 -260q-15 -90 -75.5 -146t-148.5 -53q-133 6 -179 112l58 25q32 -65 124 -71q90 -3 129.5 74.5t36.5 195.5q-16 -42 -62.5 -63t-95.5 -19q-89 4 -147 69.5t-54 153.5zM126 463q-2 -63 37 -107 t100 -46q62 -2 107.5 38.5t47.5 102.5q1 64 -40.5 108t-102.5 46t-103.5 -38.5t-45.5 -103.5z" />
<glyph unicode=":" horiz-adv-x="254" d="M72 42q0 22 16 37t39 15t39 -15t16 -37t-16 -37t-39 -15t-39 15t-16 37zM72 425q0 22 16 37t39 15t39 -15t16 -37t-16 -37t-39 -15t-39 15t-16 37z" />
<glyph unicode=";" horiz-adv-x="277" d="M43 -118q66 93 63 211h77q-6 -80 -33 -138.5t-61 -86.5zM90 425q0 22 16 37t39 15t39 -15t16 -37t-16 -37t-39 -15t-39 15t-16 37z" />
<glyph unicode="&#x3c;" horiz-adv-x="629" d="M49 235v72l509 195v-72l-432 -159l432 -160v-71z" />
<glyph unicode="=" horiz-adv-x="613" d="M77 117v63h459v-63h-459zM77 322v63h459v-63h-459z" />
<glyph unicode="&#x3e;" horiz-adv-x="629" d="M71 40v71l432 160l-432 159v72l509 -195v-72z" />
<glyph unicode="?" horiz-adv-x="487" d="M47 503q0 86 56.5 139.5t138.5 53.5q83 0 143 -53.5t60 -139.5q0 -69 -40.5 -119t-102.5 -68q-44 -13 -65 -31.5t-21 -60.5v-39h-66v39q0 66 34 101t98 54q41 13 69 46t28 78q0 56 -41 91.5t-96 35.5q-54 0 -91.5 -35t-37.5 -92h-66zM128 42q0 22 16 37t39 15t39 -15 t16 -37t-16 -37t-39 -15t-39 15t-16 37z" />
<glyph unicode="@" horiz-adv-x="987" d="M52 252q0 185 126.5 315t310.5 130q122 0 226.5 -55t167.5 -153.5t63 -218.5q0 -48 -10 -95t-30.5 -91t-59 -71.5t-88.5 -27.5q-61 0 -101 32.5t-40 107.5v133q0 58 -40.5 98t-97.5 40t-97.5 -40t-40.5 -98q0 -57 40.5 -97.5t97.5 -40.5q54 0 96 42v-71q-48 -32 -96 -32 q-83 0 -141 58.5t-58 140.5t58 140.5t141 58.5q81 0 138.5 -55.5t60.5 -134.5v-149q0 -74 80 -74q36 0 62.5 22.5t39.5 59.5t18.5 72.5t5.5 71.5q0 156 -116.5 261t-278.5 105q-158 0 -267 -112t-109 -272q0 -159 108.5 -269.5t267.5 -110.5h18v-61h-18q-184 0 -310.5 128 t-126.5 313z" />
<glyph unicode="A" horiz-adv-x="638" d="M19 0l265 689h70l265 -689h-71l-70 181h-319l-69 -181h-71zM183 243h272l-136 354z" />
<glyph unicode="B" horiz-adv-x="621" d="M100 0v689h251q83 0 131 -46t48 -125q0 -120 -84 -151q51 -9 86 -62t35 -112q0 -81 -52 -137t-141 -56h-274zM167 66h206q57 0 92.5 37.5t35.5 89.5q0 51 -37.5 96t-94.5 45h-202v-268zM167 396h192q51 0 78 35.5t27 86.5t-32.5 78.5t-87.5 27.5h-177v-228z" />
<glyph unicode="C" horiz-adv-x="664" d="M54 343q0 149 94.5 251.5t239.5 102.5t245 -103l-46 -46q-83 83 -199 83q-117 0 -192.5 -83.5t-75.5 -204.5t75.5 -204t192.5 -83q118 0 200 84l46 -47q-100 -103 -246 -103q-144 0 -239 102.5t-95 250.5z" />
<glyph unicode="D" horiz-adv-x="722" d="M100 0v689h259q142 0 223.5 -97t81.5 -249q0 -151 -81.5 -247t-223.5 -96h-259zM166 66h193q115 0 177 76.5t62 200.5t-62 202t-177 78h-193v-557z" />
<glyph unicode="E" horiz-adv-x="559" d="M100 0v689h393v-66h-327v-252h286v-66h-286v-239h338v-66h-404z" />
<glyph unicode="F" horiz-adv-x="520" d="M100 0v689h387v-66h-321v-252h255v-66h-255v-305h-66z" />
<glyph unicode="G" horiz-adv-x="756" d="M54 343q0 148 100 251t246 103q124 0 220 -80l-47 -47q-75 61 -173 61q-118 0 -199 -84t-81 -204t80.5 -203.5t199.5 -83.5q111 0 175.5 58.5t70.5 161.5h-201v62h275q0 -172 -84.5 -260t-235.5 -88q-146 0 -246 103t-100 250z" />
<glyph unicode="H" horiz-adv-x="710" d="M100 0v689h66v-316h378v316h66v-689h-66v311h-378v-311h-66z" />
<glyph unicode="I" horiz-adv-x="266" d="M100 0v689h66v-689h-66z" />
<glyph unicode="J" horiz-adv-x="266" d="M-101 -250l6 65q21 -7 56 -7q72 0 105.5 42.5t33.5 110.5v728h66v-728q0 -97 -49.5 -158t-155.5 -61q-28 0 -62 8z" />
<glyph unicode="K" horiz-adv-x="558" d="M100 0v689h66v-335l260 335h78l-268 -345l326 -344h-89l-307 324v-324h-66z" />
<glyph unicode="L" horiz-adv-x="487" d="M100 0v689h66v-623h292v-66h-358z" />
<glyph unicode="M" horiz-adv-x="945" d="M61 0l84 689h66l262 -537l261 537h66l84 -689h-65l-70 571l-243 -496h-66l-244 496l-70 -571h-65z" />
<glyph unicode="N" horiz-adv-x="685" d="M100 0v689h71l348 -573v573h66v-689h-68l-351 577v-577h-66z" />
<glyph unicode="O" horiz-adv-x="801" d="M54 343q0 148 100 251t246 103t246.5 -103t100.5 -251q0 -147 -100.5 -250t-246.5 -103t-246 103t-100 250zM120 343q0 -120 80.5 -203.5t199.5 -83.5t200 83.5t81 203.5t-81 204t-200 84q-118 0 -199 -84t-81 -204z" />
<glyph unicode="P" horiz-adv-x="601" d="M100 0v689h271q98 0 146 -61t48 -150q0 -88 -48 -148.5t-146 -60.5h-204v-269h-67zM167 335h199q68 0 100.5 41t32.5 102t-32 103t-96 42h-204v-288z" />
<glyph unicode="Q" horiz-adv-x="801" d="M54 343q0 148 100 251t246 103t246.5 -103t100.5 -251q0 -96 -46 -177t-124 -128l75 -116l-56 -36l-79 124q-57 -20 -117 -20q-146 0 -246 103t-100 250zM120 343q0 -120 80.5 -203.5t199.5 -83.5q44 0 80 10l-78 126l55 36l84 -135q65 38 102.5 104.5t37.5 145.5 q0 120 -81 204t-200 84q-118 0 -199 -84t-81 -204z" />
<glyph unicode="R" horiz-adv-x="608" d="M100 0v689h256q98 0 144.5 -61t46.5 -150q0 -87 -44.5 -146.5t-138.5 -62.5l190 -269h-81l-190 269h-116v-269h-67zM167 335h184q68 0 99 41t31 102t-30.5 103t-94.5 42h-189v-288z" />
<glyph unicode="S" horiz-adv-x="568" d="M57 198h66q0 -55 44 -98.5t113 -43.5q72 0 116 33.5t53 79.5q9 59 -28.5 95t-102.5 51l-93 21q-162 36 -162 173q0 81 65 134.5t151 53.5q93 0 154.5 -54.5t61.5 -142.5h-66q0 59 -42.5 95t-107.5 36q-59 0 -104.5 -34.5t-45.5 -87.5q0 -84 110 -109l94 -21 q92 -21 143.5 -75.5t37.5 -146.5q-13 -67 -74 -117t-160 -50q-97 0 -160 64t-63 144z" />
<glyph unicode="T" horiz-adv-x="566" d="M29 623v66h508v-66h-221v-623h-66v623h-221z" />
<glyph unicode="U" horiz-adv-x="674" d="M93 233v456h66v-456q0 -79 51.5 -128t126.5 -49t126.5 49t51.5 128v456h66v-456q0 -108 -70.5 -175.5t-173.5 -67.5t-173.5 67.5t-70.5 175.5z" />
<glyph unicode="V" horiz-adv-x="551" d="M34 689h68l173 -581l173 581h68l-206 -689h-69z" />
<glyph unicode="W" horiz-adv-x="908" d="M23 689h70l193 -585l143 494h50l143 -494l193 585h70l-233 -689h-63l-135 462l-135 -462h-63z" />
<glyph unicode="X" horiz-adv-x="591" d="M14 0l241 371l-214 318h81l173 -261l174 261h80l-214 -318l242 -371h-81l-201 315l-201 -315h-80z" />
<glyph unicode="Y" horiz-adv-x="615" d="M14 689h79l214 -297l216 297h80l-262 -369v-320h-68v320z" />
<glyph unicode="Z" horiz-adv-x="560" d="M42 0v66l389 556h-375v67h456v-66l-390 -556h390v-67h-470z" />
<glyph unicode="[" horiz-adv-x="299" d="M89 -226v915h164v-67h-97v-780h97v-68h-164z" />
<glyph unicode="\" horiz-adv-x="473" d="M31 689h73l337 -689h-73z" />
<glyph unicode="]" horiz-adv-x="299" d="M46 -158h97v780h-97v67h164v-915h-164v68z" />
<glyph unicode="_" horiz-adv-x="711" d="M72 -59h567v-63h-567v63z" />
<glyph unicode="`" horiz-adv-x="458" d="M129 689h82l70 -134h-68z" />
<glyph unicode="a" d="M49 235q0 109 68.5 175.5t170.5 66.5q54 0 102.5 -22.5t73.5 -64.5v77h67v-467h-67v80q-25 -43 -74 -66.5t-102 -23.5q-102 0 -170.5 68t-68.5 177zM116 235q0 -77 49.5 -127.5t122.5 -50.5q75 0 125.5 47.5t50.5 130.5q0 81 -53.5 128t-122.5 47q-74 0 -123 -48 t-49 -127z" />
<glyph unicode="b" d="M81 0v720h67v-330q25 42 73.5 64.5t102.5 22.5q102 0 170.5 -66.5t68.5 -175.5t-68.5 -177t-170.5 -68q-53 0 -102 23.5t-74 66.5v-80h-67zM148 235q0 -83 50.5 -130.5t125.5 -47.5q73 0 122.5 50.5t49.5 127.5q0 79 -49 127t-123 48q-69 0 -122.5 -47t-53.5 -128z" />
<glyph unicode="c" horiz-adv-x="504" d="M49 235q0 108 70.5 175t173.5 67q99 0 168 -63l-47 -47q-50 44 -121 44q-75 0 -126.5 -48.5t-51.5 -127.5t51.5 -129t126.5 -50q71 0 121 45l48 -47q-69 -64 -169 -64q-102 0 -173 68t-71 177z" />
<glyph unicode="d" d="M49 235q0 109 68.5 175.5t170.5 66.5q54 0 102.5 -22.5t73.5 -64.5v330h67v-720h-67v80q-25 -43 -74 -66.5t-102 -23.5q-102 0 -170.5 68t-68.5 177zM116 235q0 -77 49.5 -127.5t122.5 -50.5q75 0 125.5 47.5t50.5 130.5q0 81 -53.5 128t-122.5 47q-74 0 -123 -48 t-49 -127z" />
<glyph unicode="e" horiz-adv-x="557" d="M49 235q0 109 67 175.5t169 66.5q101 0 165 -66t64 -176q0 -22 -1 -31h-396q9 -67 55.5 -107.5t112.5 -40.5q47 0 85.5 21.5t60.5 59.5q11 -3 34.5 -8t32.5 -7q-28 -62 -85 -97t-128 -35q-101 0 -168.5 68t-67.5 177zM117 266h329q-10 67 -53.5 106t-107.5 39 q-66 0 -112 -39.5t-56 -105.5z" />
<glyph unicode="f" horiz-adv-x="329" d="M29 407v60h91v54q0 199 163 199h50v-63h-50q-32 0 -52.5 -12t-29.5 -33.5t-11.5 -42t-2.5 -48.5v-54h115v-60h-115v-407h-67v407h-91z" />
<glyph unicode="g" horiz-adv-x="611" d="M49 232q0 109 68.5 177t170.5 68q53 0 102 -23.5t74 -66.5v80h67v-393q0 -307 -250 -307q-61 0 -114 29t-87 87l57 33q50 -83 144 -83q87 0 135.5 58t47.5 194q-22 -44 -72 -69.5t-104 -25.5q-102 0 -170.5 66.5t-68.5 175.5zM116 232q0 -79 49 -127t123 -48 q69 0 122.5 47t53.5 128q0 83 -50.5 130.5t-125.5 47.5q-73 0 -122.5 -50.5t-49.5 -127.5z" />
<glyph unicode="h" horiz-adv-x="558" d="M81 0v720h67v-330q20 43 65 65t90 22q85 0 133 -54.5t47 -150.5v-272h-67v272q0 65 -29.5 102t-83.5 37q-63 0 -109 -38.5t-46 -117.5v-255h-67z" />
<glyph unicode="i" horiz-adv-x="228" d="M64 641q0 21 15 34.5t36 13.5t36 -13.5t15 -34.5t-15 -34.5t-36 -13.5t-36 13.5t-15 34.5zM81 0v467h66v-467h-66z" />
<glyph unicode="j" horiz-adv-x="229" d="M-65 -163h50q32 0 52.5 12t29.5 33.5t11.5 42t2.5 48.5v494h67v-494q0 -199 -163 -199h-50v63zM64 641q0 21 15 34.5t36 13.5t36 -13.5t15 -34.5t-15 -34.5t-36 -13.5t-36 13.5t-15 34.5z" />
<glyph unicode="k" horiz-adv-x="485" d="M81 0v720h66v-438l185 185h94l-200 -200l253 -267h-91l-241 255v-255h-66z" />
<glyph unicode="l" horiz-adv-x="228" d="M81 0v720h66v-720h-66z" />
<glyph unicode="m" horiz-adv-x="893" d="M81 0v467h67v-77q20 41 68 64t87 23q120 0 162 -102q49 102 173 102q85 0 133 -54.5t47 -150.5v-272h-67v272q0 65 -29.5 102t-83.5 37q-63 0 -109 -38.5t-46 -117.5v-255h-67v272q0 65 -29.5 102t-83.5 37q-63 0 -109 -38.5t-46 -117.5v-255h-67z" />
<glyph unicode="n" horiz-adv-x="558" d="M81 0v467h67v-77q20 43 65 65t90 22q85 0 133 -54.5t47 -150.5v-272h-67v272q0 65 -29.5 102t-83.5 37q-63 0 -109 -38.5t-46 -117.5v-255h-67z" />
<glyph unicode="o" horiz-adv-x="586" d="M49 235q0 108 70.5 175t173.5 67t173.5 -67t70.5 -175q0 -109 -71 -177t-173 -68t-173 68t-71 177zM115 235q0 -79 51.5 -129t126.5 -50t126.5 50t51.5 129t-51.5 127.5t-126.5 48.5t-126.5 -48.5t-51.5 -127.5z" />
<glyph unicode="p" d="M81 -226v693h67v-81q25 43 74 67t102 24q102 0 170.5 -68.5t68.5 -177.5t-68.5 -175t-170.5 -66q-54 0 -102.5 22t-73.5 64v-302h-67zM148 231q0 -81 53.5 -127.5t122.5 -46.5q74 0 123 47.5t49 126.5q0 77 -49.5 128t-122.5 51q-75 0 -125.5 -48t-50.5 -131z" />
<glyph unicode="q" d="M49 231q0 109 68.5 177.5t170.5 68.5q53 0 102 -24t74 -67v81h67v-693h-67v302q-25 -42 -73.5 -64t-102.5 -22q-102 0 -170.5 66t-68.5 175zM116 231q0 -79 49 -126.5t123 -47.5q69 0 122.5 46.5t53.5 127.5q0 83 -50.5 131t-125.5 48q-73 0 -122.5 -51t-49.5 -128z" />
<glyph unicode="r" horiz-adv-x="377" d="M81 0v467h67v-106q33 116 134 116q23 0 46 -6t30 -12l-8 -65q-32 16 -68 16q-67 0 -100.5 -67.5t-33.5 -168.5v-174h-67z" />
<glyph unicode="s" horiz-adv-x="424" d="M44 134h59q21 -81 110 -81q45 0 72 20.5t27 53.5q0 56 -67 72l-65 15q-26 6 -45 14.5t-39.5 25t-29 45t-4.5 67.5q7 49 50.5 80t101.5 31t98 -30t49 -91h-65q-6 26 -28.5 41.5t-53.5 15.5q-34 0 -58.5 -16t-28.5 -41q-11 -59 69 -78l64 -15q118 -28 118 -136 q0 -60 -49 -98.5t-122 -38.5q-63 0 -111.5 39.5t-51.5 104.5z" />
<glyph unicode="t" horiz-adv-x="308" d="M28 407v60h84v175h67v-175h99v-60h-99v-407h-67v407h-84z" />
<glyph unicode="u" horiz-adv-x="558" d="M75 195v272h67v-272q0 -65 29.5 -102t83.5 -37q63 0 109 38.5t46 117.5v255h67v-467h-67v77q-20 -43 -65 -65t-90 -22q-85 0 -133 54.5t-47 150.5z" />
<glyph unicode="v" horiz-adv-x="505" d="M24 467h70l159 -389l158 389h71l-194 -467h-71z" />
<glyph unicode="w" horiz-adv-x="804" d="M25 467h71l135 -361l134 361h72l135 -361l134 361h71l-175 -467h-56l-145 375l-140 -375h-56z" />
<glyph unicode="x" horiz-adv-x="483" d="M15 0l186 257l-152 210h82l110 -154l111 154h82l-152 -210l186 -257h-81l-146 201l-146 -201h-80z" />
<glyph unicode="y" horiz-adv-x="505" d="M24 467h70l158 -380l159 380h71l-290 -693h-69l93 227z" />
<glyph unicode="z" horiz-adv-x="495" d="M41 0v61l310 340h-293v66h388v-60l-315 -341h315v-66h-405z" />
<glyph unicode="{" horiz-adv-x="395" d="M41 206v57q26 0 45 21t19 48v172q-1 86 56 139.5t139 53.5h54v-61h-54q-54 0 -91.5 -37.5t-37.5 -94.5v-172q0 -31 -16 -59t-43 -39q25 -9 42 -38t17 -59v-170q0 -57 37.5 -94.5t91.5 -37.5h54v-61h-54q-82 0 -138.5 53.5t-56.5 139.5v170q0 27 -19 48t-45 21z" />
<glyph unicode="|" horiz-adv-x="228" d="M89 -122v913h50v-913h-50z" />
<glyph unicode="}" horiz-adv-x="395" d="M41 -165h54q54 0 91.5 37.5t37.5 94.5v170q0 30 17 59t42 38q-27 11 -43 39t-16 59v172q0 57 -37.5 94.5t-91.5 37.5h-54v61h54q82 0 139 -53.5t56 -139.5v-172q0 -27 19 -48t45 -21v-57q-26 0 -45 -21t-19 -48v-170q0 -86 -56.5 -139.5t-138.5 -53.5h-54v61z" />
<glyph unicode="&#xa1;" horiz-adv-x="234" d="M62 415q0 22 16 37t39 15t39 -15t16 -37t-16 -37t-39 -15t-39 15t-16 37zM84 -226l6 498h54l6 -498h-66z" />
<glyph unicode="&#xa2;" horiz-adv-x="523" d="M52 235q0 97 57.5 161.5t146.5 77.5v109h50v-106q93 -5 158 -63l-47 -47q-50 44 -121 44q-75 0 -126.5 -48.5t-51.5 -127.5t51.5 -129t126.5 -50q71 0 121 45l48 -47q-64 -59 -159 -64v-112h-50v115q-89 13 -146.5 79t-57.5 163z" />
<glyph unicode="&#xa3;" horiz-adv-x="639" d="M49 0v66h98v213h-81v57h81v173q0 86 60 139.5t143 53.5q82 0 138.5 -53.5t56.5 -139.5h-66q0 57 -37.5 92t-91.5 35q-55 0 -96 -35.5t-41 -91.5v-173h162v-57h-162v-213h285q9 0 15 7t6 18v59h66v-59q0 -39 -25.5 -65t-61.5 -26h-449z" />
<glyph unicode="&#xa4;" horiz-adv-x="608" d="M77 157l72 73q-38 51 -38 116q0 66 39 116l-73 74l38 38l73 -74q50 39 116 39q65 0 116 -39l73 74l38 -38l-73 -74q39 -52 39 -116q0 -66 -39 -116l73 -73l-38 -38l-73 73q-50 -39 -116 -39t-117 39l-72 -73zM172 346q0 -55 38.5 -93.5t93.5 -38.5t93.5 38.5t38.5 93.5 t-38.5 93.5t-93.5 38.5t-93.5 -38.5t-38.5 -93.5z" />
<glyph unicode="&#xa5;" horiz-adv-x="655" d="M33 689h79l214 -297l216 297h80l-262 -370h162v-47h-162v-99h162v-47h-162v-126h-68v126h-161v47h161v99h-161v47h161z" />
<glyph unicode="&#xa6;" horiz-adv-x="232" d="M91 -122v376h50v-376h-50zM91 414v377h50v-377h-50z" />
<glyph unicode="&#xa7;" horiz-adv-x="517" d="M66 371v133q0 86 56.5 139.5t138.5 53.5q63 0 113 -33t70 -90l-64 -18q-15 35 -47 55t-72 20q-54 0 -91.5 -35t-37.5 -92v-133q0 -57 37.5 -91.5t91.5 -34.5q58 0 89 27v-74q-43 -19 -89 -19q-82 0 -138.5 53t-56.5 139zM73 47l64 18q15 -35 47 -55t72 -20q54 0 91.5 35 t37.5 92v133q0 57 -37.5 91.5t-91.5 34.5q-58 0 -89 -27v74q43 19 89 19q82 0 138.5 -53t56.5 -139v-133q0 -86 -56.5 -139.5t-138.5 -53.5q-63 0 -113 33t-70 90z" />
<glyph unicode="&#xa8;" horiz-adv-x="519" d="M120 641q0 21 15 34.5t36 13.5t36 -13.5t15 -34.5t-15 -34.5t-36 -13.5t-36 13.5t-15 34.5zM297 641q0 21 15 34.5t36 13.5t36 -13.5t15 -34.5t-15 -34.5t-36 -13.5t-36 13.5t-15 34.5z" />
<glyph unicode="&#xa9;" horiz-adv-x="815" d="M58 343q0 147 101.5 250.5t247.5 103.5t248 -103.5t102 -250.5t-102 -250t-248 -103t-247.5 103t-101.5 250zM114 343q0 -123 85 -209.5t208 -86.5t208 86.5t85 209.5t-85 210t-208 87t-208 -87t-85 -210zM233 338q0 75 51.5 127t126.5 52q76 0 131 -60l-37 -37 q-43 43 -94 43q-52 0 -88 -36.5t-36 -88.5t36 -88.5t88 -36.5q51 0 96 45l36 -39q-57 -60 -132 -60t-126.5 52t-51.5 127z" />
<glyph unicode="&#xaa;" horiz-adv-x="476" d="M74 510q0 72 44.5 115.5t112.5 43.5q79 0 110 -48v41h49v-305h-49v44q-40 -51 -110 -51q-67 0 -112 44.5t-45 115.5zM88 252v41h305v-41h-305zM124 510q0 -48 31 -79t76 -31q46 0 78 29.5t32 80.5t-33.5 80.5t-76.5 29.5q-46 0 -76.5 -30t-30.5 -80z" />
<glyph unicode="&#xab;" horiz-adv-x="453" d="M50 233l138 207h62l-138 -207l138 -207h-62zM200 233l138 207h62l-138 -207l138 -207h-62z" />
<glyph unicode="&#xac;" horiz-adv-x="644" d="M77 289v63h490v-226h-63v163h-427z" />
<glyph unicode="&#xad;" horiz-adv-x="485" d="M72 202v63h341v-63h-341z" />
<glyph unicode="&#xae;" horiz-adv-x="815" d="M58 343q0 147 101.5 250.5t247.5 103.5t248 -103.5t102 -250.5t-102 -250t-248 -103t-247.5 103t-101.5 250zM114 343q0 -123 85 -209.5t208 -86.5t208 86.5t85 209.5t-85 210t-208 87t-208 -87t-85 -210zM297 164v350h133q53 0 81.5 -33t28.5 -79q0 -39 -22.5 -70.5 t-63.5 -38.5l92 -129h-66l-91 127h-37v-127h-55zM352 345h76q26 0 42 17t16 40t-15.5 40t-40.5 17h-78v-114z" />
<glyph unicode="&#xaf;" horiz-adv-x="478" d="M120 606v63h238v-63h-238z" />
<glyph unicode="&#xb0;" horiz-adv-x="366" d="M58 572q0 52 36.5 88.5t88.5 36.5t88.5 -36.5t36.5 -88.5t-36.5 -88.5t-88.5 -36.5t-88.5 36.5t-36.5 88.5zM109 572q0 -31 21.5 -52.5t52.5 -21.5t52.5 21.5t21.5 52.5t-21.5 52.5t-52.5 21.5t-52.5 -21.5t-21.5 -52.5z" />
<glyph unicode="&#xb1;" horiz-adv-x="546" d="M73 0v63h400v-63h-400zM73 274v63h168v158h63v-158h169v-63h-169v-159h-63v159h-168z" />
<glyph unicode="&#xb2;" horiz-adv-x="321" d="M33 764q7 47 41.5 75t81.5 28q52 0 87.5 -32.5t35.5 -83.5t-43 -101q-22 -26 -36 -42.5t-32.5 -38.5t-38.5 -46h150v-53h-241v24l159 192q29 36 29 65q0 28 -20 45.5t-50 17.5q-28 0 -49 -17t-25 -45z" />
<glyph unicode="&#xb3;" horiz-adv-x="325" d="M26 546q7 4 21.5 12.5t22.5 12.5q21 -46 76 -53q33 -2 59 17t27 48q1 28 -22 49.5t-55 21.5h-44v51h44q21 0 36.5 13t18.5 33q4 25 -11 42.5t-42 20.5q-44 4 -70 -35q-10 8 -38 31q16 28 46.5 44t66.5 14q47 -3 78 -35t30 -74q-2 -51 -47 -78q29 -10 47.5 -41.5 t15.5 -63.5q-4 -50 -46.5 -82.5t-97.5 -28.5q-38 3 -69.5 25t-46.5 56z" />
<glyph unicode="&#xb4;" horiz-adv-x="458" d="M129 555l70 134h82l-84 -134h-68z" />
<glyph unicode="&#xb5;" horiz-adv-x="557" d="M87 -163v630h67v-272q0 -65 29.5 -102t83.5 -37q63 0 109 38.5t46 117.5v255h67v-467h-67v77q-20 -43 -65 -65t-90 -22q-79 0 -113 42v-195h-67z" />
<glyph unicode="&#xb6;" d="M36 473q0 89 63 152.5t153 63.5h66v-748h-66v316q-90 0 -153 63t-63 153zM252 -117h55q25 0 46 17.5t21 40.5v748h66q55 0 94 -39t39 -94v-79h-66v79q0 28 -19.5 47.5t-47.5 19.5v-666q0 -56 -39.5 -94.5t-93.5 -38.5h-55v59z" />
<glyph unicode="&#xb7;" horiz-adv-x="254" d="M72 263q0 22 16 37t39 15t39 -15t16 -37t-16 -37t-39 -15t-39 15t-16 37z" />
<glyph unicode="&#xb8;" horiz-adv-x="516" d="M160 -101l53 -4q2 -15 4 -19q8 -17 25 -25t34 -1q18 8 25.5 26t-0.5 35l-49 115h56l39 -94q17 -40 2 -76.5t-54 -52.5q-32 -11 -62 -4t-51.5 35t-21.5 65z" />
<glyph unicode="&#xb9;" horiz-adv-x="202" d="M28 772v51l117 43v-396h-53v325z" />
<glyph unicode="&#xba;" horiz-adv-x="475" d="M76 512q0 72 46.5 115.5t113.5 43.5t113.5 -43.5t46.5 -115.5q0 -70 -46.5 -115t-113.5 -45t-113.5 45t-46.5 115zM86 252v41h305v-41h-305zM125 512q0 -49 32.5 -80t78.5 -31t79 31t33 80q0 50 -32.5 80.5t-79.5 30.5t-79 -30.5t-32 -80.5z" />
<glyph unicode="&#xbb;" horiz-adv-x="453" d="M53 26l138 207l-138 207h62l138 -207l-138 -207h-62zM203 26l138 207l-138 207h62l138 -207l-138 -207h-62z" />
<glyph unicode="&#xbc;" horiz-adv-x="766" d="M49 575v51l117 43v-396h-53v325zM82 -10l448 683h66l-448 -683h-66zM411 81l217 311h40v-261h57v-50h-57v-81h-53v81h-204zM502 131h113v165z" />
<glyph unicode="&#xbd;" horiz-adv-x="768" d="M52 575v51l117 43v-396h-53v325zM71 -10l448 683h66l-448 -683h-66zM468 294q7 47 41.5 75t81.5 28q52 0 87.5 -32.5t35.5 -83.5t-43 -101q-22 -26 -36 -42.5t-32.5 -38.5t-38.5 -46h150v-53h-241v24l159 192q29 36 29 65q0 28 -20 45.5t-50 17.5q-28 0 -49 -17t-25 -45z " />
<glyph unicode="&#xbe;" horiz-adv-x="810" d="M44 349q8 4 22 12.5t22 12.5q21 -46 76 -53q33 -2 59 17t27 48q1 28 -22 49.5t-55 21.5h-44v51h44q21 0 36.5 13t18.5 33q4 25 -11 42.5t-42 20.5q-44 4 -70 -35q-10 8 -38 31q16 28 46.5 44t66.5 14q47 -3 78 -35t30 -74q-2 -51 -47 -78q29 -10 47.5 -41.5t15.5 -63.5 q-4 -50 -46.5 -82.5t-97.5 -28.5q-38 3 -69.5 25t-46.5 56zM155 -10l448 683h66l-448 -683h-66zM453 81l217 311h40v-261h57v-50h-57v-81h-53v81h-204zM544 131h113v165z" />
<glyph unicode="&#xbf;" horiz-adv-x="474" d="M36 -36q0 69 40.5 119t102.5 68q41 12 63.5 35.5t22.5 66.5v29h66v-29q0 -125 -132 -165q-41 -13 -69 -46t-28 -78q0 -56 41 -91.5t96 -35.5q54 0 91.5 35t37.5 92h66q0 -86 -56.5 -139.5t-138.5 -53.5q-83 0 -143 53.5t-60 139.5zM243 425q0 22 16 37t39 15t39 -15 t16 -37t-16 -37t-39 -15t-39 15t-16 37z" />
<glyph unicode="&#xc0;" horiz-adv-x="638" d="M19 0l265 689h70l265 -689h-71l-70 181h-319l-69 -181h-71zM183 243h272l-136 354zM201 889h82l70 -134h-68z" />
<glyph unicode="&#xc1;" horiz-adv-x="638" d="M19 0l265 689h70l265 -689h-71l-70 181h-319l-69 -181h-71zM183 243h272l-136 354zM282 755l70 134h82l-84 -134h-68z" />
<glyph unicode="&#xc2;" horiz-adv-x="638" d="M19 0l265 689h70l265 -689h-71l-70 181h-319l-69 -181h-71zM180 755l95 134h87l95 -134h-68l-71 86l-70 -86h-68zM183 243h272l-136 354z" />
<glyph unicode="&#xc3;" horiz-adv-x="638" d="M19 0l265 689h70l265 -689h-71l-70 181h-319l-69 -181h-71zM183 243h272l-136 354zM188 781q3 56 28 82t57 26q24 0 51 -21t40 -21q12 0 22.5 10t11.5 32h51q-3 -56 -27.5 -80.5t-57.5 -24.5q-24 0 -51 21t-40 21q-12 0 -22.5 -11.5t-11.5 -33.5h-51z" />
<glyph unicode="&#xc4;" horiz-adv-x="638" d="M19 0l265 689h70l265 -689h-71l-70 181h-319l-69 -181h-71zM179 841q0 21 15 34.5t36 13.5t36 -13.5t15 -34.5t-15 -34.5t-36 -13.5t-36 13.5t-15 34.5zM183 243h272l-136 354zM356 841q0 21 15 34.5t36 13.5t36 -13.5t15 -34.5t-15 -34.5t-36 -13.5t-36 13.5t-15 34.5z " />
<glyph unicode="&#xc5;" horiz-adv-x="638" d="M19 0l265 689h70l265 -689h-71l-70 181h-319l-69 -181h-71zM183 243h272l-136 354zM222 851q0 41 28 69.5t68 28.5q41 0 69.5 -28.5t28.5 -69.5q0 -40 -28.5 -68t-69.5 -28q-40 0 -68 27.5t-28 68.5zM274 852q0 -20 13 -32.5t32 -12.5t32 13t13 32t-13 32t-32 13t-32 -13 t-13 -32z" />
<glyph unicode="&#xc6;" horiz-adv-x="942" d="M10 0l435 689h431v-66h-327v-252h286v-66h-286v-239h338v-66h-404v181h-280l-115 -181h-78zM242 243h241v380z" />
<glyph unicode="&#xc7;" horiz-adv-x="665" d="M55 343q0 97 42.5 178t119.5 128.5t172 47.5q72 0 135 -27t110 -76l-46 -46q-83 83 -199 83q-117 0 -192.5 -83.5t-75.5 -204.5t75.5 -204t193 -83t199.5 84l46 -47q-46 -47 -106 -74t-128 -29l24 -58q17 -40 2 -76.5t-54 -52.5q-47 -20 -91 9.5t-44 86.5l53 -4 q0 -26 20.5 -39.5t42.5 -5.5q18 8 25.5 26t-0.5 35l-35 82q-127 16 -208 115t-81 235z" />
<glyph unicode="&#xc8;" horiz-adv-x="559" d="M100 0v689h393v-66h-327v-252h286v-66h-286v-239h338v-66h-404zM191 889h82l70 -134h-68z" />
<glyph unicode="&#xc9;" horiz-adv-x="559" d="M100 0v689h393v-66h-327v-252h286v-66h-286v-239h338v-66h-404zM238 755l70 134h82l-84 -134h-68z" />
<glyph unicode="&#xca;" horiz-adv-x="559" d="M100 0v689h393v-66h-327v-252h286v-66h-286v-239h338v-66h-404zM144 755l95 134h87l95 -134h-68l-71 86l-70 -86h-68z" />
<glyph unicode="&#xcb;" horiz-adv-x="559" d="M100 0v689h393v-66h-327v-252h286v-66h-286v-239h338v-66h-404zM142 841q0 21 15 34.5t36 13.5t36 -13.5t15 -34.5t-15 -34.5t-36 -13.5t-36 13.5t-15 34.5zM319 841q0 21 15 34.5t36 13.5t36 -13.5t15 -34.5t-15 -34.5t-36 -13.5t-36 13.5t-15 34.5z" />
<glyph unicode="&#xcc;" horiz-adv-x="266" d="M14 889h82l70 -134h-68zM100 0v689h66v-689h-66z" />
<glyph unicode="&#xcd;" horiz-adv-x="266" d="M99 755l70 134h82l-84 -134h-68zM100 0v689h66v-689h-66z" />
<glyph unicode="&#xce;" horiz-adv-x="266" d="M-5 755l95 134h87l95 -134h-68l-71 86l-70 -86h-68zM100 0v689h66v-689h-66z" />
<glyph unicode="&#xcf;" horiz-adv-x="266" d="M-6 841q0 21 15 34.5t36 13.5t36 -13.5t15 -34.5t-15 -34.5t-36 -13.5t-36 13.5t-15 34.5zM100 0v689h66v-689h-66zM171 841q0 21 15 34.5t36 13.5t36 -13.5t15 -34.5t-15 -34.5t-36 -13.5t-36 13.5t-15 34.5z" />
<glyph unicode="&#xd0;" horiz-adv-x="727" d="M7 314v61h98v314h259q142 0 223.5 -97t81.5 -249q0 -151 -81.5 -247t-223.5 -96h-259v314h-98zM171 66h193q115 0 177 76.5t62 200.5t-62 202t-177 78h-193v-248h172v-61h-172v-248z" />
<glyph unicode="&#xd1;" horiz-adv-x="685" d="M100 0v689h71l348 -573v573h66v-689h-68l-351 577v-577h-66zM212 781q3 56 28 82t57 26q24 0 51 -21t40 -21q12 0 22.5 10t11.5 32h51q-3 -56 -27.5 -80.5t-57.5 -24.5q-24 0 -51 21t-40 21q-12 0 -22.5 -11.5t-11.5 -33.5h-51z" />
<glyph unicode="&#xd2;" horiz-adv-x="801" d="M54 343q0 148 100 251t246 103t246.5 -103t100.5 -251q0 -147 -100.5 -250t-246.5 -103t-246 103t-100 250zM120 343q0 -120 80.5 -203.5t199.5 -83.5t200 83.5t81 203.5t-81 204t-200 84q-118 0 -199 -84t-81 -204zM289 889h82l70 -134h-68z" />
<glyph unicode="&#xd3;" horiz-adv-x="801" d="M54 343q0 148 100 251t246 103t246.5 -103t100.5 -251q0 -147 -100.5 -250t-246.5 -103t-246 103t-100 250zM120 343q0 -120 80.5 -203.5t199.5 -83.5t200 83.5t81 203.5t-81 204t-200 84q-118 0 -199 -84t-81 -204zM354 755l70 134h82l-84 -134h-68z" />
<glyph unicode="&#xd4;" horiz-adv-x="801" d="M54 343q0 148 100 251t246 103t246.5 -103t100.5 -251q0 -147 -100.5 -250t-246.5 -103t-246 103t-100 250zM120 343q0 -120 80.5 -203.5t199.5 -83.5t200 83.5t81 203.5t-81 204t-200 84q-118 0 -199 -84t-81 -204zM262 755l95 134h87l95 -134h-68l-71 86l-70 -86h-68z " />
<glyph unicode="&#xd5;" horiz-adv-x="801" d="M54 343q0 148 100 251t246 103t246.5 -103t100.5 -251q0 -147 -100.5 -250t-246.5 -103t-246 103t-100 250zM120 343q0 -120 80.5 -203.5t199.5 -83.5t200 83.5t81 203.5t-81 204t-200 84q-118 0 -199 -84t-81 -204zM270 781q3 56 28 82t57 26q24 0 51 -21t40 -21 q12 0 22.5 10t11.5 32h51q-3 -56 -27.5 -80.5t-57.5 -24.5q-24 0 -51 21t-40 21q-12 0 -22.5 -11.5t-11.5 -33.5h-51z" />
<glyph unicode="&#xd6;" horiz-adv-x="801" d="M54 343q0 148 100 251t246 103t246.5 -103t100.5 -251q0 -147 -100.5 -250t-246.5 -103t-246 103t-100 250zM120 343q0 -120 80.5 -203.5t199.5 -83.5t200 83.5t81 203.5t-81 204t-200 84q-118 0 -199 -84t-81 -204zM261 841q0 21 15 34.5t36 13.5t36 -13.5t15 -34.5 t-15 -34.5t-36 -13.5t-36 13.5t-15 34.5zM438 841q0 21 15 34.5t36 13.5t36 -13.5t15 -34.5t-15 -34.5t-36 -13.5t-36 13.5t-15 34.5z" />
<glyph unicode="&#xd7;" horiz-adv-x="489" d="M68 143l132 132l-132 132l45 44l131 -131l133 132l44 -45l-132 -132l132 -132l-44 -45l-133 132l-131 -131z" />
<glyph unicode="&#xd8;" horiz-adv-x="799" d="M53 343q0 148 100 251t246 103q131 0 228 -86l87 89l37 -37l-87 -90q82 -100 82 -230q0 -147 -100.5 -250t-246.5 -103q-128 0 -224 82l-80 -83l-37 37l80 83q-85 99 -85 234zM119 343q0 -108 65 -187l397 407q-79 68 -182 68q-118 0 -199 -84t-81 -204zM221 119 q78 -63 178 -63q119 0 200 83.5t81 203.5q0 104 -63 183z" />
<glyph unicode="&#xd9;" horiz-adv-x="674" d="M93 233v456h66v-456q0 -79 51.5 -128t126.5 -49t126.5 49t51.5 128v456h66v-456q0 -108 -70.5 -175.5t-173.5 -67.5t-173.5 67.5t-70.5 175.5zM221 889h82l70 -134h-68z" />
<glyph unicode="&#xda;" horiz-adv-x="674" d="M93 233v456h66v-456q0 -79 51.5 -128t126.5 -49t126.5 49t51.5 128v456h66v-456q0 -108 -70.5 -175.5t-173.5 -67.5t-173.5 67.5t-70.5 175.5zM294 755l70 134h82l-84 -134h-68z" />
<glyph unicode="&#xdb;" horiz-adv-x="674" d="M93 233v456h66v-456q0 -79 51.5 -128t126.5 -49t126.5 49t51.5 128v456h66v-456q0 -108 -70.5 -175.5t-173.5 -67.5t-173.5 67.5t-70.5 175.5zM198 755l95 134h87l95 -134h-68l-71 86l-70 -86h-68z" />
<glyph unicode="&#xdc;" horiz-adv-x="674" d="M93 233v456h66v-456q0 -79 51.5 -128t126.5 -49t126.5 49t51.5 128v456h66v-456q0 -108 -70.5 -175.5t-173.5 -67.5t-173.5 67.5t-70.5 175.5zM197 841q0 21 15 34.5t36 13.5t36 -13.5t15 -34.5t-15 -34.5t-36 -13.5t-36 13.5t-15 34.5zM374 841q0 21 15 34.5t36 13.5 t36 -13.5t15 -34.5t-15 -34.5t-36 -13.5t-36 13.5t-15 34.5z" />
<glyph unicode="&#xdd;" horiz-adv-x="615" d="M14 689h79l214 -297l216 297h80l-262 -369v-320h-68v320zM270 755l70 134h82l-84 -134h-68z" />
<glyph unicode="&#xde;" horiz-adv-x="572" d="M100 0v689h67v-128h162q87 0 146 -57t59 -150t-59 -151.5t-146 -58.5h-162v-144h-67zM167 210h162q59 0 99 40t40 104q0 63 -40 102t-99 39h-162v-285z" />
<glyph unicode="&#xdf;" horiz-adv-x="567" d="M81 0v503q0 96 54.5 151t141.5 55h10q75 0 125.5 -49t50.5 -119q0 -41 -20.5 -76t-56.5 -53q59 -14 96 -72.5t37 -122.5q0 -94 -63 -158.5t-161 -64.5q-51 -2 -103 20v63q44 -20 101 -20q70 0 115 47t45 113q0 63 -46 111.5t-113 48.5h-34v60h32q46 0 75.5 30t29.5 74 t-31 73.5t-79 31.5h-10q-56 0 -93 -38.5t-37 -104.5v-503h-66z" />
<glyph unicode="&#xe0;" d="M49 235q0 109 68.5 175.5t170.5 66.5q54 0 102.5 -22.5t73.5 -64.5v77h67v-467h-67v80q-25 -43 -74 -66.5t-102 -23.5q-102 0 -170.5 68t-68.5 177zM116 235q0 -77 49.5 -127.5t122.5 -50.5q75 0 125.5 47.5t50.5 130.5q0 81 -53.5 128t-122.5 47q-74 0 -123 -48 t-49 -127zM196 689h82l70 -134h-68z" />
<glyph unicode="&#xe1;" d="M49 235q0 109 68.5 175.5t170.5 66.5q54 0 102.5 -22.5t73.5 -64.5v77h67v-467h-67v80q-25 -43 -74 -66.5t-102 -23.5q-102 0 -170.5 68t-68.5 177zM116 235q0 -77 49.5 -127.5t122.5 -50.5q75 0 125.5 47.5t50.5 130.5q0 81 -53.5 128t-122.5 47q-74 0 -123 -48 t-49 -127zM254 555l70 134h82l-84 -134h-68z" />
<glyph unicode="&#xe2;" d="M49 235q0 109 68.5 175.5t170.5 66.5q54 0 102.5 -22.5t73.5 -64.5v77h67v-467h-67v80q-25 -43 -74 -66.5t-102 -23.5q-102 0 -170.5 68t-68.5 177zM116 235q0 -77 49.5 -127.5t122.5 -50.5q75 0 125.5 47.5t50.5 130.5q0 81 -53.5 128t-122.5 47q-74 0 -123 -48 t-49 -127zM166 555l95 134h87l95 -134h-68l-71 86l-70 -86h-68z" />
<glyph unicode="&#xe3;" d="M49 235q0 109 68.5 175.5t170.5 66.5q54 0 102.5 -22.5t73.5 -64.5v77h67v-467h-67v80q-25 -43 -74 -66.5t-102 -23.5q-102 0 -170.5 68t-68.5 177zM116 235q0 -77 49.5 -127.5t122.5 -50.5q75 0 125.5 47.5t50.5 130.5q0 81 -53.5 128t-122.5 47q-74 0 -123 -48 t-49 -127zM174 581q3 56 28 82t57 26q24 0 51 -21t40 -21q12 0 22.5 10t11.5 32h51q-3 -56 -27.5 -80.5t-57.5 -24.5q-24 0 -51 21t-40 21q-12 0 -22.5 -11.5t-11.5 -33.5h-51z" />
<glyph unicode="&#xe4;" d="M49 235q0 109 68.5 175.5t170.5 66.5q54 0 102.5 -22.5t73.5 -64.5v77h67v-467h-67v80q-25 -43 -74 -66.5t-102 -23.5q-102 0 -170.5 68t-68.5 177zM116 235q0 -77 49.5 -127.5t122.5 -50.5q75 0 125.5 47.5t50.5 130.5q0 81 -53.5 128t-122.5 47q-74 0 -123 -48 t-49 -127zM165 641q0 21 15 34.5t36 13.5t36 -13.5t15 -34.5t-15 -34.5t-36 -13.5t-36 13.5t-15 34.5zM342 641q0 21 15 34.5t36 13.5t36 -13.5t15 -34.5t-15 -34.5t-36 -13.5t-36 13.5t-15 34.5z" />
<glyph unicode="&#xe5;" d="M49 235q0 109 68.5 175.5t170.5 66.5q54 0 102.5 -22.5t73.5 -64.5v77h67v-467h-67v80q-25 -43 -74 -66.5t-102 -23.5q-102 0 -170.5 68t-68.5 177zM116 235q0 -77 49.5 -127.5t122.5 -50.5q75 0 125.5 47.5t50.5 130.5q0 81 -53.5 128t-122.5 47q-74 0 -123 -48 t-49 -127zM208 651q0 41 28 69.5t68 28.5q41 0 69.5 -28.5t28.5 -69.5q0 -40 -28.5 -68t-69.5 -28q-40 0 -68 27.5t-28 68.5zM260 652q0 -20 13 -32.5t32 -12.5t32 13t13 32t-13 32t-32 13t-32 -13t-13 -32z" />
<glyph unicode="&#xe6;" horiz-adv-x="973" d="M49 235q0 109 68.5 175.5t170.5 66.5q54 0 102.5 -22.5t73.5 -64.5v77h67v-58q65 68 170 68q101 0 165 -66t64 -176q0 -22 -1 -31h-396q9 -67 55.5 -107.5t112.5 -40.5q47 0 85.5 21.5t60.5 59.5q11 -3 34.5 -8t32.5 -7q-28 -62 -85 -97t-128 -35q-104 0 -170 69v-59h-67 v80q-25 -43 -74 -66.5t-102 -23.5q-102 0 -170.5 68t-68.5 177zM116 235q0 -77 49.5 -127.5t122.5 -50.5q75 0 125.5 47.5t50.5 130.5q0 81 -53.5 128t-122.5 47q-74 0 -123 -48t-49 -127zM533 266h329q-10 67 -53.5 106t-107.5 39q-66 0 -112 -39.5t-56 -105.5z" />
<glyph unicode="&#xe7;" horiz-adv-x="505" d="M49 235q0 108 70.5 175t173.5 67q99 0 168 -63l-47 -47q-50 44 -121 44q-75 0 -126.5 -48.5t-51.5 -127.5t51.5 -129t126.5 -50q71 0 121 45l48 -47q-60 -55 -146 -63l25 -59q17 -40 2 -76.5t-54 -52.5q-47 -20 -91 9.5t-44 86.5l53 -4q1 -3 1.5 -9.5t2.5 -9.5 q8 -17 25 -25t34 -1q18 8 25.5 26t-0.5 35l-35 81q-91 11 -151 77t-60 166z" />
<glyph unicode="&#xe8;" horiz-adv-x="557" d="M49 235q0 109 67 175.5t169 66.5q101 0 165 -66t64 -176q0 -22 -1 -31h-396q9 -67 55.5 -107.5t112.5 -40.5q47 0 85.5 21.5t60.5 59.5q11 -3 34.5 -8t32.5 -7q-28 -62 -85 -97t-128 -35q-101 0 -168.5 68t-67.5 177zM117 266h329q-10 67 -53.5 106t-107.5 39 q-66 0 -112 -39.5t-56 -105.5zM169 689h82l70 -134h-68z" />
<glyph unicode="&#xe9;" horiz-adv-x="557" d="M49 235q0 109 67 175.5t169 66.5q101 0 165 -66t64 -176q0 -22 -1 -31h-396q9 -67 55.5 -107.5t112.5 -40.5q47 0 85.5 21.5t60.5 59.5q11 -3 34.5 -8t32.5 -7q-28 -62 -85 -97t-128 -35q-101 0 -168.5 68t-67.5 177zM117 266h329q-10 67 -53.5 106t-107.5 39 q-66 0 -112 -39.5t-56 -105.5zM241 555l70 134h82l-84 -134h-68z" />
<glyph unicode="&#xea;" horiz-adv-x="557" d="M49 235q0 109 67 175.5t169 66.5q101 0 165 -66t64 -176q0 -22 -1 -31h-396q9 -67 55.5 -107.5t112.5 -40.5q47 0 85.5 21.5t60.5 59.5q11 -3 34.5 -8t32.5 -7q-28 -62 -85 -97t-128 -35q-101 0 -168.5 68t-67.5 177zM117 266h329q-10 67 -53.5 106t-107.5 39 q-66 0 -112 -39.5t-56 -105.5zM143 555l95 134h87l95 -134h-68l-71 86l-70 -86h-68z" />
<glyph unicode="&#xeb;" horiz-adv-x="557" d="M49 235q0 109 67 175.5t169 66.5q101 0 165 -66t64 -176q0 -22 -1 -31h-396q9 -67 55.5 -107.5t112.5 -40.5q47 0 85.5 21.5t60.5 59.5q11 -3 34.5 -8t32.5 -7q-28 -62 -85 -97t-128 -35q-101 0 -168.5 68t-67.5 177zM117 266h329q-10 67 -53.5 106t-107.5 39 q-66 0 -112 -39.5t-56 -105.5zM142 641q0 21 15 34.5t36 13.5t36 -13.5t15 -34.5t-15 -34.5t-36 -13.5t-36 13.5t-15 34.5zM319 641q0 21 15 34.5t36 13.5t36 -13.5t15 -34.5t-15 -34.5t-36 -13.5t-36 13.5t-15 34.5z" />
<glyph unicode="&#xec;" horiz-adv-x="228" d="M-6 689h82l70 -134h-68zM81 0v467h66v-467h-66z" />
<glyph unicode="&#xed;" horiz-adv-x="228" d="M80 555l70 134h82l-84 -134h-68zM81 0v467h66v-467h-66z" />
<glyph unicode="&#xee;" horiz-adv-x="228" d="M-23 555l95 134h87l95 -134h-68l-71 86l-70 -86h-68zM81 0v467h66v-467h-66z" />
<glyph unicode="&#xef;" horiz-adv-x="228" d="M-24 641q0 21 15 34.5t36 13.5t36 -13.5t15 -34.5t-15 -34.5t-36 -13.5t-36 13.5t-15 34.5zM81 0v467h66v-467h-66zM153 641q0 21 15 34.5t36 13.5t36 -13.5t15 -34.5t-15 -34.5t-36 -13.5t-36 13.5t-15 34.5z" />
<glyph unicode="&#xf0;" horiz-adv-x="587" d="M49 235q0 108 69.5 175t166.5 67q30 0 56 -10l-99 123l-88 -56l-25 38l85 54l-80 94h82l52 -60l68 43l30 -35l-69 -43l194 -243q46 -62 46 -147q0 -109 -71 -177t-173 -68t-173 68t-71 177zM115 235q0 -79 51.5 -129t126.5 -50t126.5 50t51.5 129t-51.5 127.5 t-126.5 48.5t-126.5 -48.5t-51.5 -127.5z" />
<glyph unicode="&#xf1;" horiz-adv-x="558" d="M81 0v467h67v-77q20 43 65 65t90 22q85 0 133 -54.5t47 -150.5v-272h-67v272q0 65 -29.5 102t-83.5 37q-63 0 -109 -38.5t-46 -117.5v-255h-67zM149 581q3 56 28 82t57 26q24 0 51 -21t40 -21q12 0 22.5 10t11.5 32h51q-3 -56 -27.5 -80.5t-57.5 -24.5q-24 0 -51 21 t-40 21q-12 0 -22.5 -11.5t-11.5 -33.5h-51z" />
<glyph unicode="&#xf2;" horiz-adv-x="586" d="M49 235q0 108 70.5 175t173.5 67t173.5 -67t70.5 -175q0 -109 -71 -177t-173 -68t-173 68t-71 177zM115 235q0 -79 51.5 -129t126.5 -50t126.5 50t51.5 129t-51.5 127.5t-126.5 48.5t-126.5 -48.5t-51.5 -127.5zM178 689h82l70 -134h-68z" />
<glyph unicode="&#xf3;" horiz-adv-x="586" d="M49 235q0 108 70.5 175t173.5 67t173.5 -67t70.5 -175q0 -109 -71 -177t-173 -68t-173 68t-71 177zM115 235q0 -79 51.5 -129t126.5 -50t126.5 50t51.5 129t-51.5 127.5t-126.5 48.5t-126.5 -48.5t-51.5 -127.5zM252 555l70 134h82l-84 -134h-68z" />
<glyph unicode="&#xf4;" horiz-adv-x="586" d="M49 235q0 108 70.5 175t173.5 67t173.5 -67t70.5 -175q0 -109 -71 -177t-173 -68t-173 68t-71 177zM115 235q0 -79 51.5 -129t126.5 -50t126.5 50t51.5 129t-51.5 127.5t-126.5 48.5t-126.5 -48.5t-51.5 -127.5zM154 555l95 134h87l95 -134h-68l-71 86l-70 -86h-68z" />
<glyph unicode="&#xf5;" horiz-adv-x="586" d="M49 235q0 108 70.5 175t173.5 67t173.5 -67t70.5 -175q0 -109 -71 -177t-173 -68t-173 68t-71 177zM115 235q0 -79 51.5 -129t126.5 -50t126.5 50t51.5 129t-51.5 127.5t-126.5 48.5t-126.5 -48.5t-51.5 -127.5zM162 581q3 56 28 82t57 26q24 0 51 -21t40 -21 q12 0 22.5 10t11.5 32h51q-3 -56 -27.5 -80.5t-57.5 -24.5q-24 0 -51 21t-40 21q-12 0 -22.5 -11.5t-11.5 -33.5h-51z" />
<glyph unicode="&#xf6;" horiz-adv-x="586" d="M49 235q0 108 70.5 175t173.5 67t173.5 -67t70.5 -175q0 -109 -71 -177t-173 -68t-173 68t-71 177zM115 235q0 -79 51.5 -129t126.5 -50t126.5 50t51.5 129t-51.5 127.5t-126.5 48.5t-126.5 -48.5t-51.5 -127.5zM153 641q0 21 15 34.5t36 13.5t36 -13.5t15 -34.5 t-15 -34.5t-36 -13.5t-36 13.5t-15 34.5zM330 641q0 21 15 34.5t36 13.5t36 -13.5t15 -34.5t-15 -34.5t-36 -13.5t-36 13.5t-15 34.5z" />
<glyph unicode="&#xf7;" horiz-adv-x="580" d="M77 233v63h426v-63h-426zM235 104q0 22 16 37t39 15t39 -15t16 -37t-16 -37t-39 -15t-39 15t-16 37zM235 425q0 22 16 37t39 15t39 -15t16 -37t-16 -37t-39 -15t-39 15t-16 37z" />
<glyph unicode="&#xf8;" horiz-adv-x="584" d="M48 235q0 108 70.5 175t173.5 67q85 0 150 -48l50 52l37 -37l-49 -50q56 -66 56 -159q0 -109 -71 -177t-173 -68q-89 0 -155 52l-51 -53l-37 37l51 53q-52 67 -52 156zM114 235q0 -62 33 -108l248 254q-43 30 -103 30q-75 0 -126.5 -48.5t-51.5 -127.5zM184 90 q46 -34 108 -34q75 0 126.5 50t51.5 129q0 64 -37 111z" />
<glyph unicode="&#xf9;" horiz-adv-x="558" d="M75 195v272h67v-272q0 -65 29.5 -102t83.5 -37q63 0 109 38.5t46 117.5v255h67v-467h-67v77q-20 -43 -65 -65t-90 -22q-85 0 -133 54.5t-47 150.5zM166 689h82l70 -134h-68z" />
<glyph unicode="&#xfa;" horiz-adv-x="558" d="M75 195v272h67v-272q0 -65 29.5 -102t83.5 -37q63 0 109 38.5t46 117.5v255h67v-467h-67v77q-20 -43 -65 -65t-90 -22q-85 0 -133 54.5t-47 150.5zM233 555l70 134h82l-84 -134h-68z" />
<glyph unicode="&#xfb;" horiz-adv-x="558" d="M75 195v272h67v-272q0 -65 29.5 -102t83.5 -37q63 0 109 38.5t46 117.5v255h67v-467h-67v77q-20 -43 -65 -65t-90 -22q-85 0 -133 54.5t-47 150.5zM147 555l95 134h87l95 -134h-68l-71 86l-70 -86h-68z" />
<glyph unicode="&#xfc;" horiz-adv-x="558" d="M75 195v272h67v-272q0 -65 29.5 -102t83.5 -37q63 0 109 38.5t46 117.5v255h67v-467h-67v77q-20 -43 -65 -65t-90 -22q-85 0 -133 54.5t-47 150.5zM146 641q0 21 15 34.5t36 13.5t36 -13.5t15 -34.5t-15 -34.5t-36 -13.5t-36 13.5t-15 34.5zM323 641q0 21 15 34.5 t36 13.5t36 -13.5t15 -34.5t-15 -34.5t-36 -13.5t-36 13.5t-15 34.5z" />
<glyph unicode="&#xfd;" horiz-adv-x="505" d="M24 467h70l158 -380l159 380h71l-290 -693h-69l93 227zM203 555l70 134h82l-84 -134h-68z" />
<glyph unicode="&#xfe;" d="M81 -226v946h67v-329q25 42 73.5 64.5t102.5 22.5q102 0 170.5 -66.5t68.5 -175.5t-68.5 -177t-170.5 -68q-53 0 -102 23.5t-74 66.5v-307h-67zM148 236q0 -83 50.5 -130.5t125.5 -47.5q73 0 122.5 50.5t49.5 127.5q0 79 -49 127t-123 48q-69 0 -122.5 -47t-53.5 -128z " />
<glyph unicode="&#xff;" horiz-adv-x="505" d="M24 467h70l158 -380l159 380h71l-290 -693h-69l93 227zM116 641q0 21 15 34.5t36 13.5t36 -13.5t15 -34.5t-15 -34.5t-36 -13.5t-36 13.5t-15 34.5zM293 641q0 21 15 34.5t36 13.5t36 -13.5t15 -34.5t-15 -34.5t-36 -13.5t-36 13.5t-15 34.5z" />
<glyph unicode="&#x152;" horiz-adv-x="1140" d="M54 343q0 148 100 251t246 103q86 0 159.5 -38.5t121.5 -105.5v136h393v-66h-327v-252h286v-66h-286v-239h338v-66h-404v134q-48 -67 -121.5 -105.5t-159.5 -38.5q-146 0 -246 103t-100 250zM120 343q0 -120 80.5 -203.5t199.5 -83.5q116 0 196 79.5t85 195.5v24 q-5 116 -85.5 196t-195.5 80q-118 0 -199 -84t-81 -204z" />
<glyph unicode="&#x153;" horiz-adv-x="979" d="M49 235q0 108 70.5 175t173.5 67q66 0 122 -30t88 -83q30 53 83.5 83t120.5 30q101 0 165 -66t64 -176q0 -22 -1 -31h-396q9 -67 55.5 -107.5t112.5 -40.5q47 0 85.5 21.5t60.5 59.5q11 -3 34.5 -8t32.5 -7q-28 -62 -85 -97t-128 -35q-67 0 -120.5 30.5t-83.5 84.5 q-32 -54 -88 -84.5t-122 -30.5q-102 0 -173 68t-71 177zM115 235q0 -79 51.5 -129t126.5 -50q72 0 123.5 47.5t54.5 123.5v8q0 79 -51.5 127.5t-126.5 48.5t-126.5 -48.5t-51.5 -127.5zM539 266h329q-10 67 -53.5 106t-107.5 39q-66 0 -112 -39.5t-56 -105.5z" />
<glyph unicode="&#x178;" horiz-adv-x="615" d="M14 689h79l214 -297l216 297h80l-262 -369v-320h-68v320zM169 841q0 21 15 34.5t36 13.5t36 -13.5t15 -34.5t-15 -34.5t-36 -13.5t-36 13.5t-15 34.5zM346 841q0 21 15 34.5t36 13.5t36 -13.5t15 -34.5t-15 -34.5t-36 -13.5t-36 13.5t-15 34.5z" />
<glyph unicode="&#x2c6;" horiz-adv-x="487" d="M105 555l95 134h87l95 -134h-68l-71 86l-70 -86h-68z" />
<glyph unicode="&#x2dc;" horiz-adv-x="421" d="M80 581q3 56 28 82t57 26q24 0 51 -21t40 -21q12 0 22.5 10t11.5 32h51q-3 -56 -27.5 -80.5t-57.5 -24.5q-24 0 -51 21t-40 21q-12 0 -22.5 -11.5t-11.5 -33.5h-51z" />
<glyph unicode="&#x2000;" horiz-adv-x="474" />
<glyph unicode="&#x2001;" horiz-adv-x="949" />
<glyph unicode="&#x2002;" horiz-adv-x="474" />
<glyph unicode="&#x2003;" horiz-adv-x="949" />
<glyph unicode="&#x2004;" horiz-adv-x="316" />
<glyph unicode="&#x2005;" horiz-adv-x="237" />
<glyph unicode="&#x2006;" horiz-adv-x="158" />
<glyph unicode="&#x2007;" horiz-adv-x="158" />
<glyph unicode="&#x2008;" horiz-adv-x="118" />
<glyph unicode="&#x2009;" horiz-adv-x="189" />
<glyph unicode="&#x200a;" horiz-adv-x="52" />
<glyph unicode="&#x2010;" horiz-adv-x="485" d="M72 202v63h341v-63h-341z" />
<glyph unicode="&#x2011;" horiz-adv-x="485" d="M72 202v63h341v-63h-341z" />
<glyph unicode="&#x2012;" horiz-adv-x="485" d="M72 202v63h341v-63h-341z" />
<glyph unicode="&#x2013;" horiz-adv-x="597" d="M73 202v59h451v-59h-451z" />
<glyph unicode="&#x2014;" horiz-adv-x="813" d="M73 202v59h667v-59h-667z" />
<glyph unicode="&#x2018;" horiz-adv-x="237" d="M66 484q6 74 31 131t55 82l38 -13q-59 -83 -58 -200h-66z" />
<glyph unicode="&#x2019;" horiz-adv-x="235" d="M57 497q59 83 58 200h66q-6 -74 -31 -131t-55 -82z" />
<glyph unicode="&#x201a;" horiz-adv-x="233" d="M34 -54q59 83 58 200h66q-6 -74 -31 -131t-55 -82z" />
<glyph unicode="&#x201c;" horiz-adv-x="353" d="M66 484q6 74 31 131t55 82l38 -13q-59 -83 -58 -200h-66zM182 484q6 74 31 131t55 82l38 -13q-59 -83 -58 -200h-66z" />
<glyph unicode="&#x201d;" horiz-adv-x="351" d="M57 497q59 83 58 200h66q-6 -74 -31 -131t-55 -82zM173 497q59 83 58 200h66q-6 -74 -31 -131t-55 -82z" />
<glyph unicode="&#x201e;" horiz-adv-x="349" d="M34 -54q59 83 58 200h66q-6 -74 -31 -131t-55 -82zM150 -54q59 83 58 200h66q-6 -74 -31 -131t-55 -82z" />
<glyph unicode="&#x2022;" horiz-adv-x="458" d="M85 239q0 59 42 98t102 39t102 -39t42 -98t-42 -98t-102 -39t-102 39t-42 98z" />
<glyph unicode="&#x2026;" horiz-adv-x="734" d="M72 42q0 22 16 37t39 15t39 -15t16 -37t-16 -37t-39 -15t-39 15t-16 37zM312 42q0 22 16 37t39 15t39 -15t16 -37t-16 -37t-39 -15t-39 15t-16 37zM552 42q0 22 16 37t39 15t39 -15t16 -37t-16 -37t-39 -15t-39 15t-16 37z" />
<glyph unicode="&#x202f;" horiz-adv-x="189" />
<glyph unicode="&#x2039;" horiz-adv-x="303" d="M50 232l138 207h62l-138 -207l138 -207h-62z" />
<glyph unicode="&#x203a;" horiz-adv-x="303" d="M53 25l138 207l-138 207h62l138 -207l-138 -207h-62z" />
<glyph unicode="&#x205f;" horiz-adv-x="237" />
<glyph unicode="&#x20ac;" horiz-adv-x="797" d="M54 261v47h467v-47h-293q23 -91 92.5 -148t165.5 -57q118 0 200 84l46 -47q-100 -103 -246 -103q-123 0 -212 76t-114 195h-106zM54 374v47h105q25 121 114 198.5t213 77.5q145 0 245 -103l-46 -46q-83 83 -199 83q-97 0 -167 -58.5t-92 -151.5h294v-47h-467z" />
<glyph unicode="&#x2122;" horiz-adv-x="819" d="M68 638v51h328l128 -279l128 279h48l44 -371h-50l-34 279l-113 -247h-45l-115 245l-33 -277h-51l39 320h-109v-320h-51v320h-114z" />
<glyph unicode="&#xe000;" horiz-adv-x="465" d="M0 0v465h465v-465h-465z" />
</font>
</defs>
</svg>
